Filma vizatimore me perkthim ne shqip


+ Pėrgjigju tek Diskutimi
Rezultatet nga 1 deri tek 4 prej 4
  1. #1
    i/e rregjistruar 10% Maska e Bibina
    Anėtarėsimi
    Sep 2009
    Postime
    14
    Gjinia
    Femer
    Reputacioni
    0

    Filma vizatimore me perkthim ne shqip

    Receta Gatimi

    Ku mund te gjej filma vizatimore te perkthyer ne shqip?Nese dini ju lutem me ndihmoni duke me cuar ndonje link nga mund ti bej download.
    Thnx.

  2. #2
    Moderatori Forumit Moderator Maska e MAJDI
    Anėtarėsimi
    May 2009
    Vendndodhja
    Diku ketej rrotull
    Postime
    8,677
    Gjinia
    Mashkull
    Reputacioni
    24
    Filma vizatimore te dubluar ne shqip!

    Liza nė botėn e ēudirave [1951] DvDrip




    Media Info:

    Kodi:
    General
    Complete name                    : Liza.nė.botėn.e.ēudirave[1951]DvDrip[Alb]-neutrOn.avi
    Format                           : AVI
    Format/Info                      : Audio Video Interleave
    File size                        : 688 MiB
    Duration                         : 1h 16mn
    Overall bit rate                 : 1 259 Kbps
    
    Video
    ID                               : 0
    Format                           : MPEG-4 Visual
    Format settings, BVOP            : Yes
    Format settings, QPel            : No
    Format settings, GMC             : 2 warppoints
    Format settings, Matrix          : Default (H.263)
    Codec ID                         : DX50
    Codec ID/Hint                    : DivX 5
    Duration                         : 1h 12mn
    Bit rate                         : 1 063 Kbps
    Width                            : 512 pixels
    Height                           : 384 pixels
    Display aspect ratio             : 4/3
    Frame rate                       : 25.000 fps
    Resolution                       : 24 bits
    Scan type                        : Progressive
    Bits/(Pixel*Frame)               : 0.216
    Stream size                      : 550 MiB (80%)
    Writing library                  : DivX 5.0.0 (UTC 2002-03-04)
    
    Audio
    ID                               : 1
    Format                           : MPEG Audio
    Format version                   : Version 1
    Format profile                   : Layer 3
    Codec ID                         : 55
    Codec ID/Hint                    : MP3
    Duration                         : 1h 16mn
    Bit rate mode                    : Constant
    Bit rate                         : 256 Kbps
    Channel(s)                       : 2 channels
    Sampling rate                    : 48.0 KHz
    Resolution                       : 16 bits
    Stream size                      : 133 MiB (19%)
    Alignment                        : Aligned on interleaves
    Interleave, duration             : 40 ms (1.00 video frame)
    Download:

    Kodi:
    http://www.multiupload.com/4E1CXUXVY3
    http://www.multiupload.com/Y1KMWD3P7F
    http://www.multiupload.com/GBN6YGM5C6
    http://www.multiupload.com/P453YKF9VV
    http://www.multiupload.com/V20G2XASOX
    http://www.multiupload.com/2S7NS096FU
    http://www.multiupload.com/67R5I5P1CR
    rapidshare.com

    Kodi:
    http://rapidshare.com/files/266076521/Alice.in.Wonderland_1951_DvDrip_Alb_-neutrOn.part1.rar
    http://rapidshare.com/files/266086434/Alice.in.Wonderland_1951_DvDrip_Alb_-neutrOn.part2.rar
    http://rapidshare.com/files/266075851/Alice.in.Wonderland_1951_DvDrip_Alb_-neutrOn.part3.rar
    http://rapidshare.com/files/266086337/Alice.in.Wonderland_1951_DvDrip_Alb_-neutrOn.part4.rar
    http://rapidshare.com/files/258612766/Alice.in.Wonderland_1951_DvDrip_Alb_-neutrOn.part5.rar
    http://rapidshare.com/files/258833882/Alice.in.Wonderland_1951_DvDrip_Alb_-neutrOn.part6.rar
    http://rapidshare.com/files/258873292/Alice.in.Wonderland_1951_DvDrip_Alb_-neutrOn.part7.rar
    mediafire.com

    Kodi:
    http://www.mediafire.com/?d5djg5lnmyz
    http://www.mediafire.com/?umyyjfy3ytt
    http://www.mediafire.com/?iozzmkz1jju
    http://www.mediafire.com/?bnz1knmjjtn
    http://www.mediafire.com/?0tbmgktyyk0
    http://www.mediafire.com/?dydzqomzmme
    http://www.mediafire.com/?hk2zyzqyha2

    E bukura dhe bisha [1991] DvDrip



    Media Info:

    Kodi:
    General
    Format                           : AVI
    Format/Info                      : Audio Video Interleave
    File size                        : 674 MiB
    Duration                         : 1h 27mn
    Overall bit rate                 : 1 077 Kbps
    
    Video
    Format                           : MPEG-4 Visual
    Format profile                   : Streaming [email protected]
    Format settings, BVOP            : Yes
    Format settings, QPel            : No
    Format settings, GMC             : No warppoints
    Format settings, Matrix          : Custom
    Codec ID                         : XVID
    Codec ID/Hint                    : XviD
    Duration                         : 1h 27mn
    Bit rate                         : 845 Kbps
    Width                            : 576 pixels
    Height                           : 320 pixels
    Display aspect ratio             : 16/9
    Frame rate                       : 25.000 fps
    Original frame rate              : 23.976 fps
    Resolution                       : 24 bits
    Colorimetry                      : 4:2:0
    Scan type                        : Progressive
    Bits/(Pixel*Frame)               : 0.183
    Stream size                      : 528 MiB (78%)
    Writing library                  : XviD 1.2.0SMP (UTC 2006-01-08)
    
    Audio
    Format                           : MPEG Audio
    Format version                   : Version 1
    Format profile                   : Layer 3
    Codec ID                         : 55
    Codec ID/Hint                    : MP3
    Duration                         : 1h 25mn
    Bit rate mode                    : Constant
    Bit rate                         : 224 Kbps
    Channel(s)                       : 2 channels
    Sampling rate                    : 48.0 KHz
    Resolution                       : 16 bits
    Stream size                      : 137 MiB (20%)
    Download:

    Kodi:
    http://www.multiupload.com/AVVLVXULO1
    http://www.multiupload.com/4YXD6MV0ZD
    http://www.multiupload.com/LC8QEZPBE2
    http://www.multiupload.com/8TML01AYIE
    http://www.multiupload.com/D1X3X8HKUJ
    http://www.multiupload.com/K0001J5PO0
    http://www.multiupload.com/9TUIDXA9VI
    rapidshare.com

    Kodi:
    http://rapidshare.com/files/264051587/Beauty.and.the.beast_1991_DvDrip_Alb_-neutrOn.part1.rar.html
    http://rapidshare.com/files/264149107/Beauty.and.the.beast_1991_DvDrip_Alb_-neutrOn.part2.rar.html
    http://rapidshare.com/files/264420976/Beauty.and.the.beast_1991_DvDrip_Alb_-neutrOn.part3.rar.html
    http://rapidshare.com/files/264421891/Beauty.and.the.beast_1991_DvDrip_Alb_-neutrOn.part4.rar.html
    http://rapidshare.com/files/264670139/Beauty.and.the.beast_1991_DvDrip_Alb_-neutrOn.part5.rar.html
    http://rapidshare.com/files/264721931/Beauty.and.the.beast_1991_DvDrip_Alb_-neutrOn.part6.rar.html
    http://rapidshare.com/files/264758331/Beauty.and.the.beast_1991_DvDrip_Alb_-neutrOn.part7.rar.html
    mediafire.com

    Kodi:
    http://www.mediafire.com/?wmmmzjtzr0j
    http://www.mediafire.com/?iny0yoqgyn2
    http://www.mediafire.com/?mz2ijjahojg
    http://www.mediafire.com/?mrymmyazjyn
    http://www.mediafire.com/?t12nmg0l2w4
    http://www.mediafire.com/?qm3ti2boy2t
    http://www.mediafire.com/?dnma2j0jxn1

  3. #3
    Moderatori Forumit Moderator Maska e MAJDI
    Anėtarėsimi
    May 2009
    Vendndodhja
    Diku ketej rrotull
    Postime
    8,677
    Gjinia
    Mashkull
    Reputacioni
    24
    Mbreti Luan 2 - Krenaria e Simbas [1998] DvDrip



    Media Info:

    Kodi:
    Codec ID/Hint                    : XviD
    Duration                         : 1h 17mn
    Bit rate                         : 1 114 Kbps
    Width                            : 640 pixels
    Height                           : 376 pixels
    Display aspect ratio             : 16/9
    Frame rate                       : 25.000 fps
    Resolution                       : 24 bits
    Colorimetry                      : 4:2:0
    Scan type                        : Progressive
    Bits/(Pixel*Frame)               : 0.185
    Stream size                      : 618 MiB (89%)
    Writing library                  : XviD 1.2.1 (UTC 2008-12-04)
    
    Audio
    ID                               : 1
    Format                           : MPEG Audio
    Format version                   : Version 1
    Format profile                   : Layer 3
    Codec ID                         : 55
    Codec ID/Hint                    : MP3
    Duration                         : 1h 13mn
    Bit rate mode                    : Constant
    Bit rate                         : 128 Kbps
    Channel(s)                       : 2 channels
    Sampling rate                    : 44.1 KHz
    Resolution                       : 16 bits
    Stream size                      : 67.6 MiB (10%)
    Alignment                        : Split accross interleaves
    Interleave, duration             : 27 ms (0.69 video frame)
    Download:

    Kodi:
    http://www.multiupload.com/KP7XEJ3FE7
    http://www.multiupload.com/J9HP2LEL7D
    http://www.multiupload.com/MS37COZRFC
    http://www.multiupload.com/SO380LPXPG
    http://www.multiupload.com/F4UOQ8IJU5
    http://www.multiupload.com/H8P8KBZK81
    http://www.multiupload.com/CL7RTENFZB
    [/SIZE][/B]
    rapidshare.com

    Kodi:
    http://rapidshare.com/files/265139738/The.Lion.King.2-Simba_s.Pride_1998_DvDrip_Alb_-neutrOn.part1.rar
    http://rapidshare.com/files/265176875/The.Lion.King.2-Simba_s.Pride_1998_DvDrip_Alb_-neutrOn.part2.rar
    http://rapidshare.com/files/265222933/The.Lion.King.2-Simba_s.Pride_1998_DvDrip_Alb_-neutrOn.part3.rar
    http://rapidshare.com/files/265267175/The.Lion.King.2-Simba_s.Pride_1998_DvDrip_Alb_-neutrOn.part4.rar
    http://rapidshare.com/files/265344846/The.Lion.King.2-Simba_s.Pride_1998_DvDrip_Alb_-neutrOn.part5.rar
    http://rapidshare.com/files/265344872/The.Lion.King.2-Simba_s.Pride_1998_DvDrip_Alb_-neutrOn.part6.rar
    http://rapidshare.com/files/265344888/The.Lion.King.2-Simba_s.Pride_1998_DvDrip_Alb_-neutrOn.part7.rar
    mediafire.com


    Kodi:
    http://www.mediafire.com/?imxqt4ydv4i
    http://www.mediafire.com/?ijvr0zb2txd
    http://www.mediafire.com/?4q4bnxblmjg
    http://www.mediafire.com/?mnmdztjejjj
    http://www.mediafire.com/?vmr2w2jmynn
    http://www.mediafire.com/?m2ynnyueom0
    http://www.mediafire.com/?mnzmvmzzzde
    Shrek [2001] DvDrip



    Media Info:

    Kodi:
    General
    Complete name                    : Shrek[2001]DvDrip[Alb]-neutrOn.avi
    Format                           : AVI
    Format/Info                      : Audio Video Interleave
    File size                        : 702 MiB
    Duration                         : 1h 26mn
    Overall bit rate                 : 1 136 Kbps
    
    Video
    ID                               : 0
    Format                           : MPEG-4 Visual
    Format profile                   : Streaming [email protected]
    Format settings, BVOP            : Yes
    Format settings, QPel            : No
    Format settings, GMC             : No warppoints
    Format settings, Matrix          : Default (H.263)
    Codec ID                         : XVID
    Codec ID/Hint                    : XviD
    Duration                         : 1h 26mn
    Bit rate                         : 931 Kbps
    Width                            : 672 pixels
    Height                           : 368 pixels
    Display aspect ratio             : 16/9
    Frame rate                       : 25.000 fps
    Resolution                       : 24 bits
    Colorimetry                      : 4:2:0
    Scan type                        : Progressive
    Bits/(Pixel*Frame)               : 0.151
    Stream size                      : 575 MiB (82%)
    Writing library                  : XviD 1.2.0.dev47 (UTC 2006-11-01)
    
    Audio
    ID                               : 1
    Format                           : MPEG Audio
    Format version                   : Version 1
    Format profile                   : Layer 3
    Codec ID                         : 55
    Codec ID/Hint                    : MP3
    Duration                         : 1h 26mn
    Bit rate mode                    : Constant
    Bit rate                         : 192 Kbps
    Channel(s)                       : 2 channels
    Sampling rate                    : 48.0 KHz
    Resolution                       : 16 bits
    Stream size                      : 119 MiB (17%)
    Alignment                        : Split accross interleaves
    Interleave, duration             : 24 ms (0.60 video frame)
    Download:

    Kodi:
    http://www.multiupload.com/N0G2F36Q3F
    http://www.multiupload.com/1EYEKOQ1JX
    http://www.multiupload.com/BPEDA58DGS
    http://www.multiupload.com/4IQ2MB3S9N
    http://www.multiupload.com/FYN0D3ZMCL
    http://www.multiupload.com/NLLBFHC87O
    http://www.multiupload.com/BARNWZCOGX
    rapidshare.com

    Kodi:
    http://rapidshare.com/files/265713026/Shrek_2001_DvDrip_Alb_-neutrOn.part1.rar
    http://rapidshare.com/files/265711110/Shrek_2001_DvDrip_Alb_-neutrOn.part2.rar
    http://rapidshare.com/files/265712859/Shrek_2001_DvDrip_Alb_-neutrOn.part3.rar
    http://rapidshare.com/files/265713431/Shrek_2001_DvDrip_Alb_-neutrOn.part4.rar
    http://rapidshare.com/files/265713695/Shrek_2001_DvDrip_Alb_-neutrOn.part5.rar
    http://rapidshare.com/files/265712832/Shrek_2001_DvDrip_Alb_-neutrOn.part6.rar
    http://rapidshare.com/files/266506760/Shrek_2001_DvDrip_Alb_-neutrOn.part7.rar
    hotfile.com

    Kodi:
    http://hotfile.com/dl/9926309/28b8c52/Shrek2001DvDripAlb-neutrOn.part1.rar.html
    http://hotfile.com/dl/9932226/4575f75/Shrek2001DvDripAlb-neutrOn.part2.rar.html
    http://hotfile.com/dl/9937666/aadbed9/Shrek2001DvDripAlb-neutrOn.part3.rar.html
    http://hotfile.com/dl/9942682/8c471ac/Shrek2001DvDripAlb-neutrOn.part4.rar.html
    http://hotfile.com/dl/9946703/e723bf3/Shrek2001DvDripAlb-neutrOn.part5.rar.html
    http://hotfile.com/dl/9950942/39102bf/Shrek2001DvDripAlb-neutrOn.part6.rar.html
    http://hotfile.com/dl/9967471/eb7ecd2/Shrek2001DvDripAlb-neutrOn.part7.rar.html

    DHe shum te tjer do te vin ne vazhdim ........

  4. #4
    Moderatori Forumit Moderator Maska e MAJDI
    Anėtarėsimi
    May 2009
    Vendndodhja
    Diku ketej rrotull
    Postime
    8,677
    Gjinia
    Mashkull
    Reputacioni
    24
    Filma vizatimore te dubluar ne shqip!

    Lilo dhe Stiē [2002] DvDrip



    Media Info:

    Kodi:
    General
    Complete name                    : Lilo.dhe.Stiē[2002]DvDrip[Alb]-neutrOn.avi
    Format                           : AVI
    Format/Info                      : Audio Video Interleave
    File size                        : 690 MiB
    Duration                         : 1h 21mn
    Overall bit rate                 : 1 179 Kbps
    
    Video
    ID                               : 0
    Format                           : MPEG-4 Visual
    Format settings, BVOP            : Yes
    Format settings, QPel            : No
    Format settings, GMC             : No warppoints
    Format settings, Matrix          : Default (MPEG)
    Codec ID                         : XVID
    Codec ID/Hint                    : XviD
    Duration                         : 1h 21mn
    Bit rate                         : 1 049 Kbps
    Width                            : 592 pixels
    Height                           : 352 pixels
    Display aspect ratio             : 1.682
    Frame rate                       : 25.000 fps
    Resolution                       : 24 bits
    Scan type                        : Progressive
    Bits/(Pixel*Frame)               : 0.201
    Stream size                      : 614 MiB (89%)
    
    Audio
    ID                               : 1
    Format                           : MPEG Audio
    Format version                   : Version 1
    Format profile                   : Layer 3
    Codec ID                         : 55
    Codec ID/Hint                    : MP3
    Duration                         : 1h 16mn
    Bit rate mode                    : Constant
    Bit rate                         : 128 Kbps
    Channel(s)                       : 1 channel
    Sampling rate                    : 48.0 KHz
    Resolution                       : 16 bits
    Stream size                      : 70.6 MiB (10%)
    Alignment                        : Aligned on interleaves
    Interleave, duration             : 42 ms (1.06 video frame)
    Download:
    Kodi:
    http://www.multiupload.com/DUR11DJHM6
    http://www.multiupload.com/3NU1EGGJL9
    http://www.multiupload.com/H8KW5FM7PU
    http://www.multiupload.com/LSRC9UIJKP
    http://www.multiupload.com/3M7DL2HBKR
    http://www.multiupload.com/YABCGZ5JLZ
    http://www.multiupload.com/5B4WCEVJEJ
    rapidshare.com

    Kodi:
    http://rapidshare.com/files/266113855/Lilo.and.Stitch_2002_DvDrip_Alb_-neutrOn.part1.rar
    http://rapidshare.com/files/266113857/Lilo.and.Stitch_2002_DvDrip_Alb_-neutrOn.part2.rar
    http://rapidshare.com/files/266113726/Lilo.and.Stitch_2002_DvDrip_Alb_-neutrOn.part3.rar
    http://rapidshare.com/files/266114195/Lilo.and.Stitch_2002_DvDrip_Alb_-neutrOn.part4.rar
    http://rapidshare.com/files/266114257/Lilo.and.Stitch_2002_DvDrip_Alb_-neutrOn.part5.rar
    http://rapidshare.com/files/266109977/Lilo.and.Stitch_2002_DvDrip_Alb_-neutrOn.part6.rar
    http://rapidshare.com/files/266110073/Lilo.and.Stitch_2002_DvDrip_Alb_-neutrOn.part7.rar
    mediafire.com

    Kodi:
    http://www.mediafire.com/?z23yyniye3k
    http://www.mediafire.com/?oyy1kj33zwh
    http://www.mediafire.com/?sxmlxghcyd2
    http://www.mediafire.com/?ynyxbq0zovu
    http://www.mediafire.com/?1wmx2fz0vm1
    http://www.mediafire.com/?0cnmj1twlrb
    http://www.mediafire.com/?o2fcjmmcjzl
    Gjetja e Nemos [2003] DvDrip




    Media Info:

    Kodi:
    eneral
    Complete name                    : Finding.Nemo[2003]DvDrip[Alb]-neutrOn.avi
    Format                           : AVI
    Format/Info                      : Audio Video Interleave
    File size                        : 700 MiB
    Duration                         : 1h 36mn
    Overall bit rate                 : 1 016 Kbps
    
    Video
    ID                               : 0
    Format                           : MPEG-4 Visual
    Format settings, BVOP            : No
    Format settings, QPel            : No
    Format settings, GMC             : No warppoints
    Format settings, Matrix          : Default (MPEG)
    Codec ID                         : XVID
    Codec ID/Hint                    : XviD
    Duration                         : 1h 36mn
    Bit rate                         : 847 Kbps
    Width                            : 576 pixels
    Height                           : 320 pixels
    Display aspect ratio             : 16/9
    Frame rate                       : 25.000 fps
    Original frame rate              : 23.976 fps
    Resolution                       : 24 bits
    Colorimetry                      : 4:2:0
    Scan type                        : Progressive
    Bits/(Pixel*Frame)               : 0.184
    Stream size                      : 584 MiB (83%)
    
    Audio
    ID                               : 1
    Format                           : MPEG Audio
    Format version                   : Version 1
    Format profile                   : Layer 3
    Codec ID                         : 55
    Codec ID/Hint                    : MP3
    Duration                         : 1h 35mn
    Bit rate mode                    : Constant
    Bit rate                         : 160 Kbps
    Channel(s)                       : 2 channels
    Sampling rate                    : 48.0 KHz
    Resolution                       : 16 bits
    Stream size                      : 110 MiB (16%)
    Alignment                        : Aligned on interleaves
    Interleave, duration             : 40 ms (1.00 video frame)
    Download:

    Kodi:
    http://www.multiupload.com/5L0S7KEWTI
    http://www.multiupload.com/1FR79HM9VW
    http://www.multiupload.com/1C64XAGWO0
    http://www.multiupload.com/RANWSJX9OF
    http://www.multiupload.com/IV5P7K5T1S
    http://www.multiupload.com/Y8N1JUHQ3B
    http://www.multiupload.com/QPIMQCFPIV
    rapidshare.com

    Kodi:
    http://rapidshare.com/files/266198697/Finding.Nemo_2003_DvDrip_Alb_-neutrOn.part1.rar
    http://rapidshare.com/files/266120743/Finding.Nemo_2003_DvDrip_Alb_-neutrOn.part2.rar
    http://rapidshare.com/files/266120816/Finding.Nemo_2003_DvDrip_Alb_-neutrOn.part3.rar
    http://rapidshare.com/files/266198609/Finding.Nemo_2003_DvDrip_Alb_-neutrOn.part4.rar
    http://rapidshare.com/files/266120710/Finding.Nemo_2003_DvDrip_Alb_-neutrOn.part5.rar
    http://rapidshare.com/files/266120771/Finding.Nemo_2003_DvDrip_Alb_-neutrOn.part6.rar
    http://rapidshare.com/files/266120718/Finding.Nemo_2003_DvDrip_Alb_-neutrOn.part7.rar
    megaupload.com

    Kodi:
    http://www.megaupload.com/?d=I1JO7IZ2
    http://www.megaupload.com/?d=4FGIOKYW
    http://www.megaupload.com/?d=ON27KUWY
    http://www.megaupload.com/?d=MV0R8A69
    http://www.megaupload.com/?d=6OTAZCNU
    http://www.megaupload.com/?d=4CH4QELK
    http://www.megaupload.com/?d=4HGN4Z4G
    mediafire.com

    Kodi:
    http://www.mediafire.com/?2jbmnhwuwbd
    http://www.mediafire.com/?nnjjdot2nyu
    http://www.mediafire.com/?je4zwnk2ov4
    http://www.mediafire.com/?omggciamjmn
    http://www.mediafire.com/?32zigee2kzd
    http://www.mediafire.com/?kjzywzw3mrz
    http://www.mediafire.com/?zidxxkddgim

+ Pėrgjigju tek Diskutimi

Tema tė ngjashme

  1. Foto vizatimore mahnitese!
    Nga ReniX nė forum Galeria Fotografike
    Pėrgjigje: 1
    Postimi i Fundit: 01-10-2008, 04:46 PM